#TITLE:火花;
#SUBTITLE:;
#ARTIST:高耀太;
#TITLETRANSLIT:;
#SUBTITLETRANSLIT:;
#ARTISTTRANSLIT:;
#CREDIT:;
#BANNER:x-logo.jpg;
#BACKGROUND:x.jpg;
#LYRICSPATH:;
#CDTITLE:DD.png;
#MUSIC:x.mp3;
#OFFSET:-0.020;
#SAMPLESTART:100.000;
#SAMPLELENGTH:12.000;
#SELECTABLE:YES;
#BPMS:0.000=142.010;
#STOPS:;
#BGCHANGES:;
// cache tags:
#FIRSTBEAT:7.000;
#LASTBEAT:344.000;
#SONGFILENAME:Songs/SDO 2/x/x.sm;
#HASMUSIC:1;
#HASBANNER:1;
#MUSICLENGTH:148.575;
// end cache tags

//---------------dance-single - Hener----------------
#NOTES:
     dance-single:
     Hener:
     Hard:
     11:
     1.000,1.000,1.000,0.000,0.515,824.000,361.000,0.000,0.000,94.000:

0000
0000
0000
0000
,
0000
0000
0000
0000
0000
0000
0000
0000
0000
0000
0000
0000
1000
0100
0010
0001
,
1010
0100
0010
0001
1001
0010
0100
1000
,
1001
0100
0010
0001
1001
0010
0100
1000
,
1001
0100
0010
0001
1001
0010
0100
1000
,
1001
0100
0010
0001
1001
0010
0100
1000
,
1001
0100
0010
0001
1001
0010
0100
1000
,
1001
0100
0010
0001
1001
0010
0100
1000
,
1001
0100
0010
0001
1001
0010
0100
1000
,
1001
0100
0010
0001
1001
0010
0100
1000
,
1010
0100
0101
0010
1100
0010
0011
0100
,
1001
0100
0110
0001
1010
0100
0011
1000
,
1010
0010
1100
0001
0101
0100
1010
0100
,
1000
0100
0010
0001
0010
0100
1000
0100
0010
0001
0010
0100
1000
0100
0010
0001
,
1110
0010
0101
0100
1010
0010
0101
0010
,
1011
0100
1100
0010
0101
0010
1010
0001
,
1101
0010
0110
1000
1011
0010
1001
0100
,
1011
0000
0100
0000
0111
0000
0010
0000
1110
1110
1110
1110
1110
1110
1110
1110
,
0011
1100
0101
1010
0110
1010
0101
0011
,
1100
0110
1001
0101
1010
1100
0011
1100
,
0110
0101
1010
0101
1010
0110
1100
0011
,
0101
1010
1100
0110
0011
1010
1001
0110
,
1010
0101
0110
1010
1100
0011
1010
0110
,
1100
0011
0101
1010
1100
0011
0101
1010
,
0110
1100
0011
0110
1010
0101
0011
1010
,
1100
0110
1010
0101
0110
1001
1100
0010
,
0001
0010
1100
0010
0001
0010
1100
0001
,
0100
0010
0100
1000
0010
0001
1010
0100
,
0001
0010
1100
0001
1000
0010
0101
0010
,
1000
0010
0101
0010
1000
0100
0011
1000
,
0001
0100
1010
0001
0010
0100
1010
0001
,
1000
0100
0011
0100
1000
0001
0110
1000
,
0100
0010
1100
0010
0001
0100
0011
1000
,
0100
0000
0010
0000
0101
0000
0010
0000
0001
0010
1000
0100
0001
0010
1000
0100
,
0011
0000
0010
0010
1110
0000
0100
0100
1100
0000
1000
1000
1011
0000
0001
0001
,
0011
0000
0010
0010
1110
0000
0100
0100
1100
0000
1000
1000
1011
0000
1000
1000
,
1100
0000
0100
0100
0111
0000
0010
0010
0011
0000
0001
0001
1101
0000
1000
1000
,
1100
0000
0100
0100
0111
0000
0010
0010
0011
0000
0001
0001
1101
0000
0001
0001
,
0011
0000
0010
0010
1110
0000
0100
0100
1100
0000
1000
1000
1011
0000
0001
0001
,
0011
0000
0010
0010
1110
0000
0100
0100
1100
0000
1000
1000
1011
0000
1000
1000
,
1100
0000
0100
0100
0111
0000
0010
0010
0011
0000
0001
0001
1101
0000
1000
1000
,
1100
0000
0100
0100
0111
0000
0010
0010
0011
0000
0001
0001
1101
0000
0000
0000
,
1010
0000
0100
0000
0101
0000
0010
0000
0111
0111
0111
0111
0111
0111
0111
0111
,
1000
0100
0010
0000
1001
0010
0100
0000
1000
0100
0010
0000
1001
0010
0100
0000
,
1000
0100
0010
0000
1001
0010
0100
0000
1000
0100
0010
0000
1001
0010
0100
0000
,
0100
0010
0001
0000
0011
0100
1000
0000
0100
0010
0001
0000
0011
0100
1000
0000
,
0100
0010
0001
0000
0011
0100
1000
0000
0100
0010
0001
0000
0011
0100
1000
0000
,
0010
0001
1000
0000
0110
1000
0001
0000
0010
0001
1000
0000
0110
1000
0001
0000
,
0010
0001
1000
0000
0110
1000
0001
0000
0010
0001
1000
0000
0110
1000
0001
0000
,
0001
0010
0100
0000
1001
0100
0010
0000
0001
0010
0100
0000
1001
0100
0010
0000
,
0001
0010
0100
0000
1001
0100
0010
0000
0001
0010
0100
0000
1001
0100
0010
0000
,
0011
1100
0111
1010
0110
1010
1101
0011
,
1100
0110
1011
0101
1010
1100
1011
1100
,
0110
0011
1110
0101
1010
0110
1101
0011
,
0101
1010
1101
0110
0011
1010
1101
0110
,
1010
0101
1110
1010
1100
0011
1011
0110
,
1100
0011
0111
1010
1100
0011
1101
1010
,
0110
1100
0111
0110
1010
0101
1011
1010
,
1100
0110
1110
0101
1100
1001
0111
1100
,
0001
0010
0100
0000
1010
0100
1000
0000
0001
0010
0100
0000
1010
0100
1000
0000
,
0001
0010
0100
0000
1010
0100
1000
0000
0001
0010
0100
0000
1010
0100
1000
0000
,
1000
0100
0010
0000
0101
0010
0001
0000
1000
0100
0010
0000
0101
0010
0001
0000
,
1000
0100
0010
0000
0101
0010
0001
0000
1000
0100
0010
0000
0101
0010
0001
0000
,
0001
0010
0100
0000
1010
0100
1000
0000
0001
0010
0100
0000
1010
0100
1000
0000
,
0001
0010
0100
0000
1010
0100
1000
0000
0001
0010
0100
0000
1010
0100
1000
0000
,
1000
0100
0010
0000
0101
0010
0001
0000
1000
0100
0010
0000
0101
0010
0001
0000
,
1000
0100
0010
0000
0001
0010
0100
0000
1000
0100
0010
0000
0001
0010
0100
0000
,
1011
0000
0000
0000
0000
0000
0000
0000
1011
1011
1011
1011
1011
1011
1011
1011
,
1000
0100
0010
0000
1001
0010
0100
0000
1000
0100
0010
0000
1001
0010
0100
0000
,
0011
1100
0111
1010
0110
1010
1101
0011
,
0100
0010
0001
0000
0011
0100
1000
0000
0100
0010
0001
0000
0011
0100
1000
0000
,
1100
0110
1011
0101
1010
1100
1011
1100
,
0010
0001
1000
0000
0110
1000
0001
0000
0010
0001
1000
0000
0110
1000
0001
0000
,
0110
0101
1110
0101
1010
0110
1101
0011
,
0001
0010
0100
0000
1001
0100
0010
0000
0001
0010
0100
0000
1001
0100
0010
0000
,
0101
1010
1101
0110
0011
1010
1101
0110
,
1001
0100
0010
0100
1001
0010
0100
0010
,
1100
0000
0110
0000
0011
0000
1001
0000
1101
1101
1101
1101
1101
1101
1101
1101
,
1010
0100
0101
0010
1100
0010
0011
0100
,
1001
0100
0110
0001
1010
0100
0011
1000
,
1010
0010
1100
0001
0101
0100
1010
0100
,
1000
0100
0010
0001
0010
0100
1000
0100
0010
0001
0010
0100
1000
0100
0010
0001
,
1110
0010
0101
0100
1010
0010
0101
0010
,
1011
0100
1100
0010
0101
0010
1010
0001
,
1101
0010
0110
1000
1011
0010
1001
0100
,
1011
0000
0100
0000
0111
0000
0010
0000
1111
1111
1111
1111
1111
1111
1111
1111
,
1111
0000
0000
0000
;
